#TITLE:Southern Cross;
#SUBTITLE:;
#ARTIST:403 Forbiddena;
#TITLETRANSLIT:;
#SUBTITLETRANSLIT:;
#ARTISTTRANSLIT:;
#CREDIT:;
#BANNER:Southern Cross - Banner.png;
#BACKGROUND:Southern Cross - Background.png;
#LYRICSPATH:;
#CDTITLE:!kilgacdtitle.png;
#MUSIC:Southern Cross.mp3;
#OFFSET:-6.600;
#SAMPLESTART:107.560;
#SAMPLELENGTH:22.520;
#SELECTABLE:YES;
#BPMS:0.000=85.500,22.000=81.500,23.500=85.500,24.000=171.000,192.000=178.000,195.000=170.000,196.000=85.500,226.000=88.000,228.000=171.000;
#STOPS:;
#BGCHANGES:;
// cache tags:
#FIRSTBEAT:0.000;
#LASTBEAT:404.000;
#SONGFILENAME:Songs/Music V.I.P ^_^/Southern Cross (Kilga)/Southern Cross.sm;
#HASMUSIC:1;
#HASBANNER:1;
#MUSICLENGTH:170.847;
// end cache tags

//---------------dance-single - Heavy----------------
#NOTES:
     dance-single:
     Heavy:
     Hard:
     11:
     1.000,1.000,1.000,0.181,1.000,1202.000,429.000,31.000,2.000,23.000:
2001
0000
0000
0000
0010
0000
0000
0000
0100
0000
0000
0000
0010
0000
0000
3000
1001
0000
0000
0000
1100
0000
0000
0000
2010
0000
0000
0000
0001
0000
0000
0000
0100
3000
0000
0000
1010
0000
0000
0000
0011
0000
0000
0000
1010
0000
0000
0000
,
1200
0000
0000
0000
0001
0000
0000
0000
0010
0300
0000
0000
1100
0000
0000
0000
0110
0000
0000
0000
0011
0000
0000
0000
0110
0000
0000
0000
0101
0000
0000
0000
2002
0000
0000
0000
0000
0000
0000
0000
0000
0000
3003
0000
1001
0000
0000
0000
,
0011
0010
0100
0010
1001
0101
0011
1000
1000
0011
1010
0011
,
0101
1001
1200
0001
1310
1001
0110
0001
0020
0000
0000
0130
,
1001
0010
0100
1001
1010
1100
0110
1000
0110
0110
0011
0110
,
0110
0000
0000
0000
0001
0000
0000
0000
1000
0000
0000
0000
0001
0000
0000
0000
1010
0000
0000
0000
0001
0000
0000
0000
1000
0000
0000
0000
0000
0000
0000
0000
1100
0000
0000
0000
0000
0000
0000
0000
0000
0000
0000
0000
0000
0000
0000
0000
0101
0000
0000
0000
0000
0000
0000
0000
0000
0000
0000
0000
0000
0000
0000
0000
1100
0000
0000
0000
0000
0000
0000
0000
0000
0000
0000
0000
0000
0000
0000
0000
0011
0000
0000
0000
0000
0000
0000
0000
0000
0000
0000
0000
0000
0000
0000
0000
2200
0000
0000
0000
0000
0000
0000
0000
0000
0000
0000
0000
0000
0000
0000
0000
0000
0000
0000
0000
0000
0000
0000
0000
0000
0000
0000
0000
0000
0000
0000
0000
0000
0000
0000
0000
0000
0000
0000
0000
0000
0000
0000
0000
0000
0000
0000
0000
0000
0000
0000
0000
0000
0000
0000
0000
0000
0000
0000
0000
3300
0000
0000
0000
0000
0000
0000
0000
0000
0000
0000
0000
0010
0000
0000
0000
0000
0000
0100
0000
0000
0000
0000
0000
0010
0000
0000
0000
0000
0000
0100
0000
0000
0000
0000
0000
,
1011
0000
1101
0000
1011
0000
1100
0110
,
0011
0000
1010
0000
0011
0000
0110
0000
0101
0000
1001
0000
0101
1000
0010
0100
,
1011
0000
1101
0000
1011
0000
0011
0101
,
1001
0000
1010
0000
1100
0000
0110
0000
1001
0000
0000
0000
0010
1000
0001
0100
,
1011
0000
1101
0000
1011
0000
1011
1101
,
0111
0000
1110
0000
0111
0000
0011
0110
,
1101
1010
0110
0101
0011
1001
1100
0110
,
1001
0010
0100
1000
0001
1000
0001
0100
0001
0010
0100
1000
0100
0010
0100
0010
,
0100
1000
0010
0100
0001
0010
1000
0001
0100
0010
0100
1000
0001
0100
0001
1000
,
0101
0010
0001
1000
0100
0010
0101
0000
0101
0000
1001
0000
0011
0000
0101
0000
,
1010
0100
1000
0100
0011
0100
0010
0001
1100
0001
1000
0001
0110
0001
0010
0100
,
1001
0100
0010
0001
0010
0100
1001
0000
1001
0000
1100
0000
1010
0000
1001
0000
,
0011
0100
1000
0100
1001
0010
0001
0010
0101
1000
0010
1000
0110
0001
0100
0001
,
1100
0010
0001
0100
1001
0010
0100
0001
1010
0001
1000
0100
1000
0001
1100
0000
,
1010
0100
0010
0100
1001
0100
1000
0010
0101
0010
0001
0100
1010
0000
1100
0000
,
0110
0001
0010
0100
1000
0001
0110
0000
0110
0000
0000
0101
0000
0000
0110
0000
,
1100
0010
0001
0010
0001
0010
1100
0000
1001
0010
0100
1000
0001
0010
0100
1000
,
0011
1000
0100
0001
0100
1000
0011
0000
0011
0000
1001
0000
0101
0000
0011
0000
,
1010
0100
1000
0100
0011
0100
0010
0001
1100
0010
0100
1000
0110
0001
0100
0010
,
1001
0010
0100
0001
1000
0010
1001
0000
1001
0000
0110
0000
0101
0000
1001
0000
,
1100
0001
0010
0100
1010
0100
1000
0100
0011
0100
1000
0001
0110
1000
0100
0010
,
0101
0010
0100
1000
0110
0001
0100
0001
1010
0100
0010
1000
0010
0001
1100
0000
,
1010
0100
1000
0100
1001
0010
0100
1000
0011
0000
0101
0000
1001
0000
1010
0000
,
1001
0010
0100
0010
0001
1000
0100
1000
0011
0000
0000
0110
0000
0000
1100
0000
,
0110
0000
0100
0000
0100
0000
0100
0000
0001
1000
0001
1000
0001
1000
0001
1000
,
0101
1000
0100
1000
0010
1000
0001
1000
0010
1000
0100
0010
0001
0010
0100
0010
,
0002
0000
0000
0000
0013
0000
0100
0000
2000
0000
0000
0000
3001
0000
1000
0000
0002
0000
0000
0000
0000
0000
0000
0003
0220
0000
0000
0000
0000
0000
0000
0330
,
0001
0100
1000
0001
0010
1000
0100
0010
0001
0010
0100
1000
0010
0100
0010
1000
,
0100
0010
0100
0001
0100
0010
1000
0001
0010
0100
1000
0010
0100
0010
1000
0100
,
0001
1000
0001
1000
0010
0001
0010
0100
0010
1000
0010
0100
1000
0010
0100
0010
,
1000
0001
0010
0100
1000
0010
0100
0010
1001
1001
0000
0000
1001
1001
0000
0000
,
0001
0010
0100
1000
0100
0010
0001
1000
0010
1000
0100
1000
0100
0010
0100
1000
,
0001
0100
0010
1000
0100
0010
0100
1000
0001
0100
0010
0100
0001
1000
0010
0100
,
1000
0001
1000
0001
0010
1000
0001
1000
0100
0010
0001
1000
0010
0100
0001
1000
,
0001
0010
0100
0010
0001
0100
1000
0100
1001
0000
0000
0000
0001
0010
0100
1000
,
0001
0010
0001
0010
1000
0100
1000
0100
0001
0100
0001
0100
0011
0000
1001
0100
,
1010
0000
1001
0010
0101
0000
1001
0100
1020
0000
0000
0000
0100
0000
0000
0000
,
1030
0100
1000
0100
0010
0001
0010
0001
1000
0001
1000
0001
0110
0000
1010
0100
,
0011
0000
0101
0010
1100
0000
1010
0100
0012
0000
0000
0000
0000
0000
1000
1003
,
0011
0000
0101
0000
1001
0010
1000
0010
0101
0000
1001
0000
1010
0000
0101
0000
,
1001
1010
1100
1001
0110
1100
0011
1010
,
2002
0000
0000
0000
,
0000
0000
0000
3003
,
1200
0000
0000
0000
0010
0000
0000
0000
0001
0000
0000
0000
0010
0000
0000
0300
1001
0000
0000
0000
1010
0000
0000
0000
1200
0000
0000
0000
0001
0000
0000
0000
0010
0300
0000
0000
0001
0000
0000
0000
1010
0000
0000
0000
1001
0000
0000
0000
,
1010
0000
1001
0000
0101
0000
0101
0000
1001
0000
1010
0000
0110
0000
0001
0000
2000
0000
0000
0000
0000
3000
0110
0000
,
0011
1000
0100
0011
0110
1100
1001
0010
1001
1001
1010
1100
,
1111
0000
0000
0000
0110
0000
0000
0000
0011
0000
0000
0000
1100
0000
0000
0000
0110
0000
0000
0000
0011
0000
0000
0000
0120
0000
0000
0000
0001
0000
0000
0000
1000
0030
0000
0000
0101
0000
0000
0M0M
0000
0000
0000
0000
0101
0000
0000
0000
,
2001
0000
0000
0000
0000
0000
0000
0000
0010
0000
0000
0000
0001
0000
0000
3000
0110
0000
0000
0000
0101
0000
0000
0000
1001
0000
0000
0000
0010
0000
0000
0000
0100
0000
0000
0000
1001
0000
0000
0000
1010
0000
0000
0000
1001
0000
0000
0000
,
0101
0000
0011
0000
1100
0000
1100
0000
0011
0000
0101
0000
0110
0000
1000
0000
0002
0000
0000
0000
0000
0003
0110
0000
,
2100
0000
0000
0000
0001
0000
0000
0000
0010
3000
0000
0000
1100
0000
0000
0000
1010
0000
0000
0000
0110
0000
0000
0000
1001
0000
0000
0000
0100
0000
0000
0000
1001
0000
0000
0000
1001
0000
0000
0000
1010
0000
0000
0000
1001
0000
0000
0000
,
1001
0000
0000
0000
0101
0000
0000
0000
0011
0000
0000
0000
1100
0000
0000
0000
0011
0000
0000
0000
0101
0000
0000
0000
0022
0000
0000
0000
0000
0000
0000
0000
0000
0000
0000
0000
0000
0000
0000
0000
0000
0000
0000
0000
0000
0033
0000
0000
,
1100
0001
0010
0100
1000
0100
0010
0100
0011
1000
0100
0010
0001
0010
0100
1000
,
0011
0100
1000
0010
1000
0100
0011
0000
0011
0000
1001
0000
0101
0000
0011
0000
,
1010
0100
0001
0100
0011
0100
0010
0001
1100
0001
0010
0100
1010
0001
1000
0001
,
0110
1000
0100
0010
0001
1000
0110
0000
0110
0000
1100
0000
1010
0000
0110
0000
,
0101
0010
0100
1000
0110
0001
0010
0100
0011
0100
1000
0001
1010
0100
0010
0100
,
1001
0010
0001
0010
1100
0001
0010
0001
1010
0100
1000
0001
1000
0100
0011
0000
,
1010
0100
0010
0001
1100
0010
0001
1000
0110
0001
1000
0100
0011
0000
1010
0000
,
1001
0100
0010
0001
0010
0100
1001
0000
1001
0000
0000
1010
0000
0000
1001
0000
,
0101
0010
0100
0001
1000
0010
0101
0000
0110
1000
0001
0010
0100
1000
0001
0010
,
1100
0001
1000
0010
0100
0010
1100
0000
1100
0000
0011
0000
0110
0000
1100
0000
,
0101
0010
0100
0010
1100
0001
0010
0100
1010
0100
1000
0100
1001
0100
1000
0001
,
0110
1000
0100
0010
0100
1000
0110
0000
0110
0000
0011
0000
0101
0000
0110
0000
,
1010
0001
0100
0001
0110
1000
0100
0010
1100
0010
0001
0010
0101
1000
0100
0010
,
1001
0100
1000
0100
0011
1000
0100
0010
0101
0010
0100
1000
0001
0010
1100
0000
,
0101
0010
0001
1000
0110
0001
1000
0100
0011
0000
0101
0000
1001
0000
1010
0000
,
1001
0010
0100
0010
0100
1000
0100
1000
0011
0000
0000
1010
0000
0000
0110
0000
,
1001
0010
0100
1000
0001
0010
0100
1000
0001
0010
0100
0010
0001
1000
0100
0010
,
1100
0001
1000
0100
0010
0001
1100
0000
1100
0000
1001
0000
1010
0000
1100
0000
,
0110
1100
0101
1010
,
1001
0010
0100
1000
0100
0010
1001
0000
1001
0000
0000
0101
0000
0000
0011
0000
,
0110
0001
1000
0001
1000
0010
1000
0100
1000
0010
1000
0001
1100
0010
0100
0001
,
1010
0100
0010
0001
0010
0100
1010
0000
1010
0000
0000
0101
0000
0000
1100
0000
,
0011
0100
1000
0001
0110
0001
1000
0001
1100
0001
1000
0100
1000
0100
1010
0000
,
1100
0010
0000
0010
0001
0000
1010
0000
1010
0000
0000
1001
0000
0000
0101
0000
,
0011
1000
0100
0010
0001
1000
0100
1000
0110
0001
0010
0100
1000
0001
0010
0100
,
1001
0010
0100
0010
1100
0001
0010
0100
1010
0100
1000
0001
1100
0010
0100
1000
,
0101
1000
0100
1000
0110
1000
0001
0100
0011
0100
0010
0001
1010
0100
0001
0100
,
1001
0010
1000
0010
0101
1000
0100
1000
0011
0100
0010
0001
1010
0001
0010
0001
,
1100
0010
0100
1000
0110
0001
1000
0100
0011
0100
1000
0001
0110
0001
1000
0100
,
1010
0001
1000
0001
0110
1000
0100
1000
0011
0100
1000
0100
1001
0010
0001
0010
,
1100
0010
0100
1000
0011
0100
0010
0001
1100
0010
1000
0010
0101
0010
1000
0100
,
0011
1000
0001
1000
0110
0001
0010
0001
1010
0000
0000
1001
0000
0000
0101
0000
,
1001
0010
0100
1000
0100
0010
0001
0010
0100
1000
0100
0010
0001
0010
0100
0010
,
1101
0000
0000
0000
0011
0000
1010
0000
1100
0000
0101
0000
,
1011
0000
0000
0000
1010
0000
0011
0000
0000
0000
0000
0000
,
1110
0000
0000
0000
1100
0000
0111
0000
0011
0000
1010
0000
,
1101
0000
0000
0000
0000
0000
0000
0000
0000
0000
0000
0000
0000
0000
0000
0000
0000
0000
0000
0000
0110
0000
0000
0000
1011
0000
0000
0100
0000
0000
0010
0000
0000
0001
0000
0000
1010
0000
0000
0001
0000
0000
1100
0000
0000
0001
0000
0000
,
1100
0000
0000
0010
0000
0000
0100
0000
0000
1000
0000
0000
0001
0000
0000
0010
0000
0000
0001
0000
1100
0000
0000
0000
0101
0000
0000
0000
0000
0000
0000
0000
0011
0000
0000
0000
0000
0000
0000
0000
0110
0000
0000
0000
0000
0000
0000
0000
,
0011
0000
0000
1000
0000
0000
0100
0000
0000
0010
0000
0000
0100
0000
0000
0010
0000
0000
0001
0000
0000
0010
0000
0000
0100
0000
0000
1000
0000
0000
0001
0000
0000
0010
0000
0000
0100
0000
0000
0010
0000
0000
0001
0000
1100
0000
0000
0000
,
1010
0000
0000
0001
0000
0000
0001
0000
1010
0001
0000
0000
1010
0000
0000
0001
1100
0000
0001
0000
1010
0001
0000
0000
,
1001
0010
0100
1000
0100
0010
0001
0010
0100
1000
0001
0010
0100
1000
0001
1000
,
0001
1000
0010
1000
0100
0010
0100
0010
1001
0010
0001
0010
0001
1000
0110
0000
,
0220
0000
0000
0000
0000
0000
0000
0000
0000
0000
0000
0330
0010
1000
0001
0100
,
2002
0000
0000
0000
,
3003
0000
0000
0000
;

//---------------dance-single - Standard----------------
#NOTES:
     dance-single:
     Standard:
     Medium:
     10:
     1.000,1.000,1.000,0.181,1.000,1037.000,430.000,31.000,2.000,23.000:
2001
0000
0000
0000
0010
0000
0000
0000
0100
0000
0000
0000
0010
0000
0000
3000
1001
0000
0000
0000
1100
0000
0000
0000
2010
0000
0000
0000
0001
0000
0000
0000
0100
3000
0000
0000
1010
0000
0000
0000
0011
0000
0000
0000
1010
0000
0000
0000
,
1200
0000
0000
0000
0001
0000
0000
0000
0010
0300
0000
0000
1100
0000
0000
0000
0110
0000
0000
0000
0011
0000
0000
0000
0110
0000
0000
0000
0101
0000
0000
0000
2002
0000
0000
0000
0000
0000
0000
0000
0000
0000
3003
0000
1001
0000
0000
0000
,
0011
0010
0100
0010
1001
0101
0011
1000
1000
0011
1010
0011
,
0101
1001
1200
0001
1310
1001
0110
0001
0020
0000
0000
0130
,
1001
0010
0100
1001
1010
1100
0110
1000
0110
0110
0011
0110
,
0110
0000
0000
0000
0000
0000
0000
0000
0000
0000
0000
0000
0000
0000
0000
0000
1010
0000
0000
0000
0000
0000
0000
0000
0000
0000
0000
0000
0000
0000
0000
0000
1100
0000
0000
0000
0000
0000
0000
0000
0000
0000
0000
0000
0000
0000
0000
0000
0101
0000
0000
0000
0000
0000
0000
0000
0000
0000
0000
0000
0000
0000
0000
0000
1100
0000
0000
0000
0000
0000
0000
0000
0000
0000
0000
0000
0000
0000
0000
0000
0011
0000
0000
0000
0000
0000
0000
0000
0000
0000
0000
0000
0000
0000
0000
0000
2200
0000
0000
0000
0000
0000
0000
0000
0000
0000
0000
0000
0000
0000
0000
0000
0000
0000
0000
0000
0000
0000
0000
0000
0000
0000
0000
0000
0000
0000
0000
0000
0000
0000
0000
0000
0000
0000
0000
0000
0000
0000
0000
0000
0000
0000
0000
0000
0000
0000
0000
0000
0000
0000
0000
0000
0000
0000
0000
0000
3300
0000
0000
0000
0000
0000
0000
0000
0000
0000
0000
0000
0010
0000
0000
0000
0000
0000
0100
0000
0000
0000
0000
0000
0010
0000
0000
0000
0000
0000
0100
0000
0000
0000
0000
0000
,
1011
0000
1101
0000
1011
0000
1100
0110
,
0011
1010
0011
0110
0101
1001
0101
0010
,
1011
0000
1101
0000
1011
0000
0011
0101
,
1001
0000
1010
0000
1100
0000
0110
0000
1001
0000
0000
0000
0010
1000
0001
0100
,
1011
0000
1101
0000
1011
0000
1011
1101
,
0111
0000
1110
0000
0111
0000
0011
0110
,
1101
1010
0110
0101
0011
1001
1100
0110
,
1001
0010
0100
1000
0001
1000
0001
0100
0001
0010
0100
1000
0100
0010
0100
0010
,
0100
1000
0010
0100
0001
0010
1000
0001
0100
0010
0100
1000
0001
0100
0001
1000
,
0101
0010
0001
1000
0100
0010
0101
0000
0101
0000
1001
0000
0011
0000
0101
0000
,
1010
0100
0011
0010
1100
0001
0110
0010
,
1001
0100
0010
0001
0010
0100
1001
0000
1001
0000
1100
0000
1010
0000
1001
0000
,
0011
0100
1001
0010
0101
1000
0110
0001
,
1100
0000
0010
0000
1001
0000
0100
0000
1010
0001
1000
0100
1000
0001
1100
0000
,
1010
0100
1001
0010
0101
0010
1010
1100
,
0110
0001
0010
0100
1000
0001
0110
0000
0110
0000
0000
0101
0000
0000
0110
0000
,
1100
0010
0001
0010
0001
0010
1100
0000
1001
0010
0100
1000
0001
0010
0100
1000
,
0011
1000
0100
0001
0100
1000
0011
0000
0011
0000
1001
0000
0101
0000
0011
0000
,
1010
0100
0011
0010
1100
0001
0110
0100
,
1001
0010
0100
0001
1000
0010
1001
0000
1001
0000
0110
0000
0101
0000
1001
0000
,
1100
0001
1010
0100
0011
1000
0110
1000
,
0101
0000
1000
0000
0110
0000
0001
0000
1010
0100
0010
1000
0010
0001
1100
0000
,
1010
0100
1001
0100
0011
0101
1001
1010
,
1001
0010
0100
0010
0001
1000
0100
1000
0011
0000
0000
0110
0000
0000
1100
0000
,
0110
0000
0100
0000
0100
0000
0100
0000
0001
1000
0001
1000
0001
1000
0001
1000
,
0101
1000
0100
1000
0010
1000
0001
1000
0010
1000
0100
0010
0001
0010
0100
0010
,
0002
0000
0000
0000
0013
0000
0100
0000
2000
0000
0000
0000
3001
0000
1000
0000
0002
0000
0000
0000
0000
0000
0000
0003
0220
0000
0000
0000
0000
0000
0000
0330
,
0001
0100
1000
0001
0010
1000
0100
0010
0001
0010
0100
1000
0010
0100
0010
1000
,
0100
0010
0100
0001
0100
0010
1000
0001
0010
0100
1000
0010
0100
0010
1000
0100
,
0001
1000
0001
1000
0010
0001
0010
0100
0010
1000
0010
0100
1000
0010
0100
0010
,
1000
0001
0010
0100
1000
0010
0100
0010
0001
1000
0000
0000
0001
1000
0000
0000
,
0001
0010
0100
1000
0100
0010
0001
1000
0010
1000
0100
1000
0100
0010
0100
1000
,
0001
0100
0010
1000
0100
0010
0100
1000
0001
0100
0010
0100
0001
1000
0010
0100
,
1000
0001
1000
0001
0010
1000
0001
1000
0100
0010
0001
1000
0010
0100
0001
1000
,
0001
0010
0100
0010
0001
0100
1000
0100
1001
0000
0000
0000
0001
0010
0100
1000
,
0001
0010
0001
0010
1000
0100
1000
0100
0001
0100
0001
0100
0011
0000
1001
0000
,
1010
1001
0101
1001
1020
0000
0100
0000
,
1030
0100
1000
0100
0010
0001
0010
0001
1000
0001
1000
0001
0110
0000
1010
0000
,
0011
0000
0101
0000
1100
0000
1010
0000
0012
0000
0000
0000
0000
0000
1000
0103
,
0011
0101
1001
0010
0101
1001
1010
0101
,
1001
1010
1100
1001
0110
1100
0011
1010
,
2002
0000
0000
0000
,
0000
0000
0000
3003
,
1200
0000
0000
0000
0010
0000
0000
0000
0001
0000
0000
0000
0010
0000
0000
0300
1001
0000
0000
0000
1010
0000
0000
0000
1200
0000
0000
0000
0001
0000
0000
0000
0010
0300
0000
0000
0001
0000
0000
0000
1010
0000
0000
0000
1001
0000
0000
0000
,
1010
0000
1001
0000
0101
0000
0101
0000
1001
0000
1010
0000
0110
0000
0001
0000
2000
0000
0000
0000
0000
3000
0110
0000
,
0011
1000
0100
0011
0110
1100
1001
0010
1001
1001
1010
1100
,
1111
0000
0000
0000
0110
0000
0000
0000
0011
0000
0000
0000
1100
0000
0000
0000
0110
0000
0000
0000
0011
0000
0000
0000
0120
0000
0000
0000
0001
0000
0000
0000
1000
0030
0000
0000
0101
0000
0000
0M0M
0000
0000
0000
0000
0101
0000
0000
0000
,
2001
0000
0000
0000
0000
0000
0000
0000
0010
0000
0000
0000
0001
0000
0000
3000
0110
0000
0000
0000
0101
0000
0000
0000
1001
0000
0000
0000
0010
0000
0000
0000
0100
0000
0000
0000
1001
0000
0000
0000
1010
0000
0000
0000
1001
0000
0000
0000
,
0101
0000
0011
0000
1100
0000
1100
0000
0011
0000
0101
0000
0110
0000
1000
0000
0002
0000
0000
0000
0000
0003
0110
0000
,
2100
0000
0000
0000
0001
0000
0000
0000
0010
3000
0000
0000
1100
0000
0000
0000
1010
0000
0000
0000
0110
0000
0000
0000
1001
0000
0000
0000
0100
0000
0000
0000
1001
0000
0000
0000
1001
0000
0000
0000
1010
0000
0000
0000
1001
0000
0000
0000
,
1001
0000
0000
0000
0101
0000
0000
0000
0011
0000
0000
0000
1100
0000
0000
0000
0011
0000
0000
0000
0101
0000
0000
0000
0022
0000
0000
0000
0000
0000
0000
0000
0000
0000
0000
0000
0000
0000
0000
0000
0000
0000
0000
0000
0000
0033
0000
0000
,
1100
0001
0010
0100
1000
0100
0010
0100
0011
1000
0100
0010
0001
0010
0100
1000
,
0011
0100
1000
0010
1000
0100
0011
0000
0011
0000
1001
0000
0101
0000
0011
0000
,
1010
0100
0011
0010
1100
0001
1010
0001
,
0110
1000
0100
0010
0001
1000
0110
0000
0110
0000
1100
0000
1010
0000
0110
0000
,
0101
1000
0110
1000
0011
0100
1010
0100
,
1001
0000
0010
0000
1100
0000
0001
0000
1010
0100
1000
0001
1000
0100
0011
0000
,
1010
0001
1100
0001
0110
1000
0011
1010
,
1001
0100
0010
0001
0010
0100
1001
0000
1001
0000
0000
1010
0000
0000
1001
0000
,
0101
0010
0100
0001
1000
0010
0101
0000
0110
1000
0001
0010
0100
1000
0001
0010
,
1100
0001
1000
0010
0100
0010
1100
0000
1100
0000
0011
0000
0110
0000
1100
0000
,
0101
0010
1100
0001
1010
0100
1001
1000
,
0110
1000
0100
0010
0100
1000
0110
0000
0110
0000
0011
0000
0101
0000
0110
0000
,
1010
0001
0110
0001
1100
0010
0101
0010
,
1001
0000
0100
0000
0011
0000
1000
0000
0101
0010
0100
1000
0001
0010
1100
0000
,
0101
1000
0110
1000
0011
0101
1001
1010
,
1001
0010
0100
0010
0100
1000
0100
1000
0011
0000
0000
1010
0000
0000
0110
0000
,
1001
0010
0100
1000
0001
0010
0100
1000
0001
0010
0100
0010
0001
1000
0100
0010
,
1100
0001
1000
0100
0010
0001
1100
0000
1100
0000
1001
0000
1010
0000
1100
0000
,
0110
1100
0101
1010
,
1001
0010
0100
1000
0100
0010
1001
0000
1001
0000
0000
0101
0000
0000
0011
0000
,
0110
0001
1000
0001
1000
0010
1000
0100
1000
0010
1000
0001
1100
0010
0100
0001
,
1010
0100
0010
0001
0010
0100
1010
0000
1010
0000
0000
0101
0000
0000
1100
0000
,
0011
0000
1000
0000
0110
0000
0001
0000
1100
0001
1000
0100
1000
0100
1010
0000
,
1100
0010
0000
0010
0001
0000
1010
0000
1010
0000
0000
1001
0000
0000
0101
0000
,
0011
1000
0100
0010
0001
1000
0100
1000
0110
0001
0010
0100
1000
0001
0010
0100
,
1001
0010
0100
0001
0100
0010
1001
0000
1001
0000
0011
0000
1010
0000
1001
0000
,
1100
0010
1001
0010
0101
1000
1010
0001
,
0110
0001
1000
0010
1000
0001
0110
0000
0110
0000
1100
0000
1010
0000
0110
0000
,
0011
1000
0110
1000
0101
0010
1001
0010
,
1100
0000
0010
0000
1001
0000
0100
0000
1010
0001
1000
0100
0010
0100
1010
0000
,
1001
0100
0011
1000
0110
0011
1001
1100
,
1001
0100
0010
0001
0010
0100
0010
0001
1010
0000
0000
1001
0000
0000
0101
0000
,
1001
0010
0100
1000
0100
0010
0001
0010
0100
1000
0100
0010
0001
0010
0100
0010
,
1101
0000
0000
0000
0011
0000
1010
0000
1100
0000
0101
0000
,
1011
0000
0000
0000
1010
0000
0011
0000
0000
0000
0000
0000
,
1110
0000
0000
0000
1100
0000
0111
0000
0011
0000
1010
0000
,
1101
0000
0000
0000
0000
0000
0000
0000
0000
0000
0110
0000
1011
0000
0000
0100
0000
0000
1010
0000
0000
1100
0000
0000
,
1100
0000
0000
0010
0000
0000
0100
0000
0000
1000
0000
0000
0001
0000
0000
0010
0000
0000
0001
0000
1100
0000
0000
0000
0101
0000
0000
0000
0000
0000
0000
0000
0011
0000
0000
0000
0000
0000
0000
0000
0110
0000
0000
0000
0000
0000
0000
0000
,
0011
0000
0000
1000
0000
0000
0100
0000
0000
0010
0000
0000
0100
0000
0000
0010
0000
0000
0001
0000
0000
0010
0000
0000
0100
0000
0000
1000
0000
0000
0001
0000
0000
0010
0000
0000
0100
0000
0000
0010
0000
0000
0001
0000
1100
0000
0000
0000
,
1010
0000
0000
0001
0000
0000
0001
0000
1010
0000
0000
0000
1010
0000
0000
0000
1100
0000
0001
0000
1010
0000
0000
0000
,
1001
0010
0100
1000
0100
0010
0001
0010
0100
1000
0001
0010
0100
1000
0001
1000
,
0001
1000
0010
1000
0100
0010
0100
0010
1001
0010
0001
0010
0001
1000
0110
0000
,
0220
0000
0000
0000
0000
0000
0000
0000
0000
0000
0000
0330
0010
1000
0001
0100
,
2002
0000
0000
0000
,
3003
0000
0000
0000
;

//---------------dance-single - AAAAAAAAIIIIIIIRRRRR----------------
#NOTES:
     dance-single:
     AAAAAAAAIIIIIIIRRRRR:
     Challenge:
     14:
     1.000,1.000,1.000,0.181,1.000,1359.000,445.000,31.000,2.000,30.000:
2001
0000
0000
0000
0010
0000
0000
0000
0100
0000
0000
0000
0010
0000
0000
3000
1001
0000
0000
0000
1100
0000
0000
0000
2010
0000
0000
0000
0001
0000
0000
0000
0100
3000
0000
0000
1010
0000
0000
0000
0011
0000
0000
0000
1010
0000
0000
0000
,
1200
0000
0000
0000
0001
0000
0000
0000
0010
0300
0000
0000
1100
0000
0000
0000
0110
0000
0000
0000
0011
0000
0000
0000
0110
0000
0000
0000
0101
0000
0000
0000
2002
0000
0000
0000
0000
0000
0000
0000
0000
0000
3003
0000
1001
0000
0000
0000
,
0011
0010
0100
0010
1001
0101
0011
1000
1000
0011
1010
0011
,
0101
1001
1200
0001
1310
1001
0110
0001
0020
0000
0000
0130
,
1001
0010
0100
1001
1010
1100
0110
1000
0110
0110
0011
0110
,
0110
0000
0000
0000
0001
0000
0000
0000
1000
0000
0000
0000
0001
0000
0000
0000
1010
0000
0000
0000
0001
0000
0000
0000
1000
0000
0000
0000
0000
0000
0000
0000
1100
0000
0000
0000
0000
0000
0000
0000
0000
0000
0000
0000
0000
0000
0000
0000
0101
0000
0000
0000
0000
0000
0000
0000
0000
0000
0000
0000
0000
0000
0000
0000
1100
0000
0000
0000
0000
0000
0000
0000
0000
0000
0000
0000
0000
0000
0000
0000
0011
0000
0000
0000
0000
0000
0000
0000
0000
0000
0000
0000
0000
0000
0000
0000
2200
0000
0000
0000
0000
0000
0000
0000
0000
0000
0000
0000
0000
0000
0000
0000
0000
0000
0000
0000
0000
0000
0000
0000
0000
0000
0000
0000
0000
0000
0000
0000
0000
0000
0000
0000
0000
0000
0000
0000
0000
0000
0000
0000
0000
0000
0000
0000
0000
0000
0000
0000
0000
0000
0000
0000
0000
0000
0000
0000
3300
0000
0000
0000
0000
0000
0000
0000
0000
0000
0000
0000
0010
0000
0000
0000
0000
0000
0100
0000
0000
0000
0000
0000
0010
0000
0000
0000
0000
0000
0100
0000
0000
0000
0000
0000
,
1011
0000
0000
0000
1101
0000
0000
0000
1011
0000
0000
0000
1100
0000
0110
1000
,
0011
0100
1010
0100
0011
1000
0110
1000
0101
0010
1001
0010
0101
1000
0010
0100
,
1011
0000
0000
0000
1101
0000
0000
0000
1011
0000
0000
0000
0011
0000
0101
0010
,
1001
0100
1010
0001
1100
0001
0110
0100
1011
0000
0000
0000
0010
1000
0001
0100
,
1011
0000
1101
0000
1011
0000
1011
1101
,
0111
0000
1110
0000
0111
0000
0011
0110
,
1101
1010
0110
0101
0011
1001
1100
0110
,
1001
0010
0100
1000
0001
1000
0001
0100
0001
0010
0100
1000
0100
0010
0100
0010
,
0100
1000
0010
0100
0001
0010
1000
0001
0100
0010
0100
1000
0001
0100
0001
1000
,
0101
0010
0001
1000
0100
0010
0101
1000
0101
0010
1001
0100
0011
1000
0101
0010
,
1010
0100
1000
0100
0011
0100
0010
0001
1100
0001
1000
0001
0110
0001
0010
0100
,
1001
0100
0010
0001
0010
0100
1001
0100
1001
0010
1100
0001
1010
0100
1001
0100
,
0011
0100
1000
0100
1001
0010
0001
0010
0101
1000
0010
1000
0110
0001
0100
0001
,
1100
0010
0001
0100
1001
0010
0100
0001
1010
0001
1000
0100
1000
0001
1100
0001
,
1010
0100
0010
0100
1001
0100
1000
0010
0101
0010
0001
0100
1010
0001
1100
0001
,
0110
0001
0010
0100
1000
0001
0110
1000
0110
0001
1000
0101
0010
0001
0110
0001
,
1100
0010
0001
0010
0001
0010
1101
0000
1011
0100
1000
0100
0010
0100
1000
0100
,
0011
1000
0100
0001
0100
1000
0011
1000
0011
0100
1001
0010
0101
1000
0011
0100
,
1010
0100
1000
0100
0011
0100
0010
0001
1100
0010
0100
1000
0110
0001
0100
0010
,
1001
0010
0100
0001
1000
0010
1001
0100
1001
0010
0110
1000
0101
0010
1001
0010
,
1100
0001
0010
0100
1010
0100
1000
0100
0011
0100
1000
0001
0110
1000
0100
0010
,
0101
0010
0100
1000
0110
0001
0100
0001
1010
0100
0010
1000
0010
0001
1100
0001
,
1010
0100
1000
0100
1001
0010
0100
1000
0011
1000
0101
0010
1001
0100
1010
0100
,
1001
0010
0100
0010
0001
1000
0100
1000
0011
0100
1000
0110
0001
0010
1100
0001
,
0110
0000
0100
0000
0100
0000
0100
0000
0100
0100
0100
0100
0100
0100
0100
0100
,
0101
1000
0100
1000
0010
1000
0001
1000
0010
1000
0100
0010
0001
0010
0100
0010
,
0002
0000
0000
0000
0013
0000
0100
0000
2000
0000
0000
0000
3001
0000
1000
0000
0002
0000
0000
0000
0000
0000
0000
0003
0220
0000
0000
0000
0000
0000
0000
0330
,
0001
0100
1000
0001
0010
1000
0100
0010
0001
0010
0100
1000
0010
0100
0010
1000
,
0100
0010
0100
0001
0100
0010
1000
0001
0010
0100
1000
0010
0100
0010
1000
0100
,
0001
1000
0001
1000
0010
0001
0010
0100
0010
1000
0010
0100
1000
0010
0100
0010
,
1000
0001
0010
0100
1000
0010
0100
0010
1101
1011
0000
0000
1101
1011
0000
0000
,
0001
0010
0100
1000
0100
0010
0001
1000
0010
1000
0100
1000
0100
0010
0100
1000
,
0001
0100
0010
1000
0100
0010
0100
1000
0001
0100
0010
0100
0001
1000
0010
0100
,
1000
0001
1000
0001
0010
1000
0001
1000
0100
0010
0001
1000
0010
0100
0001
1000
,
0001
0010
0100
0010
0001
0100
1000
0100
1001
0000
0000
0000
0001
0010
0100
1000
,
0001
0010
0001
0010
1000
0100
1000
0100
0001
0100
0001
0100
0011
0000
1001
0100
,
1010
0000
1001
0010
0101
0000
1001
0100
1020
0000
0000
0000
0100
0000
0000
0000
,
1030
0100
1000
0100
0010
0001
0010
0001
1000
0001
1000
0001
0110
0000
1010
0100
,
0011
0000
0101
0010
1100
0000
1010
0100
0012
0000
0000
0000
0000
0000
1000
1003
,
0011
1000
0101
0010
1001
0010
1000
0010
0101
0010
1001
0100
1010
0001
0101
0010
,
1001
0100
1010
0001
1100
0010
1001
0100
0110
0001
1100
1000
0011
0100
1010
0100
,
2002
0000
0000
0000
,
0000
0000
0000
3003
,
1200
0000
0000
0000
0010
0000
0000
0000
0001
0000
0000
0000
0010
0000
0000
0300
1001
0000
0000
0000
1010
0000
0000
0000
1200
0000
0000
0000
0001
0000
0000
0000
0010
0300
0000
0000
0001
0000
0000
0000
1010
0000
0000
0000
1001
0000
0000
0000
,
1010
0000
1001
0000
0101
0000
0101
0000
1001
0000
1010
0000
0110
0000
0001
0000
2000
0000
0000
0000
0000
3000
0110
0000
,
0011
1000
0100
0011
0110
1100
1001
0010
1001
1001
1010
1100
,
1111
0000
0000
0000
0110
0000
0000
0000
0011
0000
0000
0000
1100
0000
0000
0000
0110
0000
0000
0000
0011
0000
0000
0000
0120
0000
0000
0000
0001
0000
0000
0000
1000
0030
0000
0000
0101
0000
0000
0M0M
0000
0000
0000
0000
0101
0000
0000
0000
,
2001
0000
0000
0000
0000
0000
0000
0000
0010
0000
0000
0000
0001
0000
0000
3000
0110
0000
0000
0000
0101
0000
0000
0000
1001
0000
0000
0000
0010
0000
0000
0000
0100
0000
0000
0000
1001
0000
0000
0000
1010
0000
0000
0000
1001
0000
0000
0000
,
0101
0000
0011
0000
1100
0000
1100
0000
0011
0000
0101
0000
0110
0000
1000
0000
0002
0000
0000
0000
0000
0003
0110
0000
,
2100
0000
0000
0000
0001
0000
0000
0000
0010
3000
0000
0000
1100
0000
0000
0000
1010
0000
0000
0000
0110
0000
0000
0000
1001
0000
0000
0000
0100
0000
0000
0000
1001
0000
0000
0000
1001
0000
0000
0000
1010
0000
0000
0000
1001
0000
0000
0000
,
1001
0000
0000
0000
0101
0000
0000
0000
0011
0000
0000
0000
1100
0000
0000
0000
0011
0000
0000
0000
0101
0000
0000
0000
0022
0000
0000
0000
0000
0000
0000
0000
0000
0000
0000
0000
0000
0000
0000
0000
0000
0000
0000
0000
0000
0033
0000
0000
,
1100
0001
0010
0100
1000
0100
0010
0100
0011
1000
0100
0010
0001
0010
0100
1000
,
0011
0100
1000
0010
1000
0100
0011
0100
0011
0100
1001
0010
0101
1000
0011
0100
,
1010
0100
0001
0100
0011
0100
0010
0001
1100
0001
0010
0100
1010
0001
1000
0001
,
0110
1000
0100
0010
0001
1000
0110
0001
0110
0001
1100
0001
1010
0001
0110
1000
,
0101
0010
0100
1000
0110
0001
0010
0100
0011
0100
1000
0001
1010
0100
0010
0100
,
1001
0010
0001
0010
1100
0001
0010
0001
1010
0100
1000
0001
1000
0100
0011
0100
,
1010
0100
0010
0001
1100
0010
0001
1000
0110
0001
1000
0100
0011
0100
1010
0100
,
1001
0100
0010
0001
0010
0100
1001
0100
1001
0010
0100
1010
0100
0010
1001
0010
,
0101
0010
0100
0001
1000
0010
0101
1000
0110
1000
0001
0010
0100
1000
0001
0010
,
1100
0001
1000
0010
0100
0010
1100
0001
1100
1000
0011
1000
0110
0001
1100
0010
,
0101
0010
0100
0010
1100
0001
0010
0100
1010
0100
1000
0100
1001
0100
1000
0001
,
0110
1000
0100
0010
0100
1000
0110
0001
0110
1000
0011
1000
0101
1000
0110
0001
,
1010
0001
0100
0001
0110
1000
0100
0010
1100
0010
0001
0010
0101
1000
0100
0010
,
1001
0100
1000
0100
0011
1000
0100
0010
0101
0010
0100
1000
0001
0010
1100
0010
,
0101
0010
0001
1000
0110
0001
1000
0100
0011
1000
0101
0010
1001
0100
1010
0100
,
1001
0010
0100
0010
0100
1000
0100
1000
0011
1000
0100
1010
0001
1000
0110
0010
,
1001
0010
0100
1000
0001
0010
0100
1000
0001
0010
0100
0010
0001
1000
0100
0010
,
1100
0001
1000
0100
0010
0001
1100
0010
1100
0010
1001
0100
1010
0001
1100
0001
,
0110
0001
0010
0001
1100
0010
0100
1000
0101
0010
0100
0001
1010
0100
0010
0100
,
1001
0010
0100
1000
0100
0010
1001
0100
1001
0010
1000
0101
1000
0100
0011
1000
,
0110
0001
1000
0001
1000
0010
1000
0100
1000
0010
1000
0001
1100
0010
0100
0001
,
1010
0100
0010
0001
0010
0100
1010
0001
1010
0100
1000
0101
0010
0001
1100
0010
,
0011
0100
1000
0001
0110
0001
1000
0001
1100
0001
1000
0100
1000
0100
1010
0001
,
1100
0100
0000
0100
0100
0000
1010
0100
1010
0100
0010
1001
0100
0010
0101
1000
,
0011
1000
0100
0010
0001
1000
0100
1000
0110
0001
0010
0100
1000
0001
0010
0100
,
1001
0010
0100
0010
1100
0001
1010
0100
1010
0100
1001
0010
1100
0010
0101
1000
,
0101
1000
0100
1000
0110
1000
0001
0100
0011
0100
0010
0001
1010
0100
0001
0100
,
1001
0010
1000
0010
0101
1000
0110
1000
0011
0100
1010
0001
1010
0001
0110
0001
,
1100
0010
0100
1000
0110
0001
1000
0100
0011
0100
1000
0001
0110
0001
1000
0100
,
1010
0001
1000
0001
0110
1000
0100
1000
0011
0100
1000
0100
1001
0010
0101
0010
,
1100
0010
0100
1000
0011
0100
0010
0001
1100
0010
1001
0010
0101
0010
1001
0100
,
0011
1000
0001
1000
0110
0001
0010
0001
1010
0100
0010
1001
0100
0010
0101
0010
,
1001
0010
0100
1000
0100
0010
0001
0010
0100
1000
0100
0010
0001
0010
0100
0010
,
1101
0000
0000
0000
0011
0000
1010
0000
1100
0000
0101
0000
,
1011
0000
0000
0000
1010
0000
0011
0000
0000
0000
0000
0000
,
1110
0000
0000
0000
1100
0000
0111
0000
0011
0000
1010
0000
,
1101
0000
0000
0000
0000
0000
0000
0000
0000
0000
0000
0000
0000
0000
0000
0000
0000
0000
0000
0000
0110
0000
0000
0000
1011
0000
0000
0100
0000
0000
0010
0000
0000
0001
0000
0000
1010
0000
0000
0001
0000
0000
1100
0000
0000
0001
0000
0000
,
1100
0000
0000
0010
0000
0000
0100
0000
0000
1000
0000
0000
0001
0000
0000
0010
0000
0000
0001
0000
1100
0010
0000
0000
0101
0000
0000
1000
0000
0000
0100
0000
0011
1000
0000
0000
0100
0000
0000
1000
0110
0000
0001
0000
0000
1000
0000
0000
,
0011
0000
0000
1000
0000
0000
0100
0000
0000
0010
0000
0000
0100
0000
0000
0010
0000
0000
0101
0000
0000
0110
0000
0000
1100
0000
0000
1000
0000
0000
0001
0000
0000
0010
0000
0000
0100
0000
0000
0010
0000
0000
0001
0000
1100
0010
0000
0000
,
1010
0000
0000
0000
0000
0000
0001
0000
0000
0000
0000
0000
0001
0000
0000
0000
1010
0000
0001
0000
0000
0000
0000
0000
1010
0000
0000
0000
0000
0000
0001
0000
1100
0000
0000
0000
0001
0000
0000
0100
1010
0000
0001
0000
0000
0100
0000
0000
,
1001
0010
0100
1000
0100
0010
0001
0010
0100
1000
0001
0010
0100
1000
0001
1000
,
0001
1000
0010
1000
0100
0010
0100
0010
1001
0010
0001
0010
0001
1000
0110
0000
,
0220
0000
0000
0000
0000
0000
0000
0000
0000
0000
0000
0330
0110
0110
0110
0110
,
2002
0000
0000
0000
,
3003
0000
0000
0000
;
